Deer Tick - Deer Tick, Vol. 2Deer Tick - Deer Tick, Vol. 2 Bjorn Lynne - SootheBjorn Lynne - Soothe Karaoke - HappyKaraoke - Happy Grup Tres - Altres ValorsGrup Tres - Altres Valors Johnny Cash - Mean as Hell!Johnny Cash - Mean as Hell! Milt Jackson - GoodbyeMilt Jackson - Goodbye Ward White - BobWard White - Bob Bud Buckley - Sitting On the WindBud Buckley - Sitting On the Wind
» » Stan Getz - Stan Getz/Zoot Sims: Double Exposure
Stan Getz - Stan Getz/Zoot Sims: Double Exposure album download
Title:

Stan Getz - Stan Getz/Zoot Sims: Double Exposure album download

Performer:
Stan Getz
Album:
Stan Getz/Zoot Sims: Double Exposure
Style:
Cool,Jazz Instrument,Saxophone Jazz
Genre:
MP3 archive size:
1280 mb
FLAC archive size:
1366 mb
Other formats:
DMF AC3 MIDI RA MP1 AHX
Rating:
4.3
Votes:
823

Tenor Saxophone – Stan Getz (tracks: 1 to 5), Zoot Sims (tracks: 6 to 11). Notes. Recorded 1969, Europe.

Stan Getz & Zoot Sims Album: Double Exposure Genre: Cool, Hard Bop Released: 1992. Stan Getz 00:00 The Song Is You (5:56) 05:56 O Grane Amor (6:27) 12:23 For Jane (2:55) 15:18 Dane's Chant (7:52) 23:10 Major General (6:12). Zoot Sims 29:22 Nirvana (4:17) 33:39 Indiana (4:05) 37:44 Memories Of You (4:08) 41:52 Come Rain Or Come Shine (4:38) 46:30 Up A Lazy River (3:24) 49:54 Send In The Clowns (2:30).

Stan Getz's five tracks on this CD were recorded in 1969 at a French jazz festival. The backing from his trio, was at that time quite modern enough to provide a stimulus for the leader and he responded with typically matchless performances.

Artist: Stan Getz, Zoot Sims Album: Double Exposure Genre: Cool, Hard Bop Label: LRC Released: 1992 Quality: FLAC (image+. cue) Tracklist: Stan Getz: The Song Is You (5:56). Major General (6:12) Zoot Sims: Nirvana (4:17).

EAC extraction logfile from 23. November 2011, 11:34. Stan Getz, Double Exposure. Used drive : HL-DT-STDVDRAM GSA-E10L Adapter: 2 ID: 0. Read mode : Secure Utilize accurate stream : Yes Defeat audio cache : Yes Make use of C2 pointers : No.

TITLE "Nirvana" PERFORMER "Stan Getz - Zoot Sims" INDEX 00 29:18:70 INDEX 01 29:22:20 TRACK 07 AUDIO TITLE "Indiana" PERFORMER "Stan Getz - Zoot Sims" INDEX 00 33:38:10 INDEX 01 33:39:50 TRACK 08 AUDIO TITLE "Memories Of You" PERFORMER "Stan Getz - Zoot Sims" INDEX 00 37:42:30 INDEX 01 37:44:25 TRACK 09 AUDIO TITLE. Getz Personnel ( Stan Getz (tenor saxophone), Stanley Cowell (piano), Miroslav Vitous (bass), Jack DeJohnette (drums) Sims Personnel ( Zoot Sims (tenor & soprano saxophones), Bucky Pizzarelli (guitar), Milt Hinton (bass), Buddy Rich (drums). Скачать раздачу по magnet-ссылке · 26. MB.

1; Level 8 Single File. cue Multiple wav file with Gaps (Noncompliant) Accurately ripped (confidence 1) (AR v2). Covers Incluse. Tracks List: Stan Getz.

As mentioned there is alot more than Stan's fine performance on this album- It is not an overstatment to call this one of the most spontaneous yet sympathetic rhythm sections he ever played with. This is jazz music making of a high caliber. Direction, interaction, reaction- it makes for a stimulating listen. I interviewed Stan getz for the Irvington village green high school newspaper when I was 16, a time I'll always remember, he was very cordial and his golden retriever dog was really friendly too. In hindsight I think he was happy I did'nt ask him anything about bossa nova. I'll always have a sweet spot for the sound of Stan Getz' horn, a sound nobody else had.