Purna Chandra Das Baul - Meye Ganga SaraswatiPurna Chandra Das Baul - Meye Ganga Saraswati Josh White - The Story of John HenryJosh White - The Story of John Henry John Hicks - Softy as in a Morning SunriseJohn Hicks - Softy as in a Morning Sunrise Karaoke - Too Gone Too LongKaraoke - Too Gone Too Long Fettes Brot - Teenager Vom MarsFettes Brot - Teenager Vom Mars Pop Shuvit - Take It and ShuvitPop Shuvit - Take It and Shuvit Rob Middleton Quartet - Dark EnergyRob Middleton Quartet - Dark Energy Christoph von Dohnányi - Mendelssohn: The SymphoniesChristoph von Dohnányi - Mendelssohn: The Symphonies
» » Ensemble Tourbillon / Petr Wagner - Roland Marais: Pièces de Viole, Livre II, 1738 - Suites I-IV
Ensemble Tourbillon / Petr Wagner - Roland Marais: Pièces de Viole, Livre II, 1738 - Suites I-IV album download
Title:

Ensemble Tourbillon / Petr Wagner - Roland Marais: Pièces de Viole, Livre II, 1738 - Suites I-IV album download

Performer:
Ensemble Tourbillon / Petr Wagner
Album:
Roland Marais: Pièces de Viole, Livre II, 1738 - Suites I-IV
Genre:
MP3 archive size:
1323 mb
FLAC archive size:
1359 mb
Other formats:
FLAC WMA MP4 AA DXD MP3
Rating:
4.9
Votes:
784

Roland Marais: Pièces de Viole, Livre II, 1738 - Suites I-IV.

Roland Marais: Pièces de Viole, Livre II, 1738 - Suites I-IV.

Roland Marais - Pièces de Viole, Livre II, 1738, Suites I-IV Жанр: Classical chamber, viola Страна-производитель диска: Made in Germany Год издания диска: 2009 Издатель (лейбл): Accent Номер по каталогу: ACC 24229 Дата записи: 2009 Аудиокодек: FLAC Тип рипа: image+. IV - Sarabande „La Des Bordes " PERFORMER "Petr Wagner, Ensemble Tourbillon" INDEX 00 67:56:49 INDEX 01 67:58:07 TRACK 29 AUDIO TITLE "Suite IV - Gavotte en Rondeau „La Goiffon " PERFORMER "Petr Wagner, Ensemble Tourbillon" INDEX 01 71:24:74 TRACK 30 AUDIO TITLE "Suite IV - Rondeau „La Balalud " PERFORMER "Petr Wagner, Ensemble Tourbillon" INDEX 01 73:07:22.

Artist: Petr Wagner, Ensemble Tourbillon Title: Roland Marais - Pièces de Viole, Livre II, 1738, Suites I-IV Year Of Release: 2009 Label: Accent Genre: Classical Quality: FLAC (image+. Ensemble Tourbillon Shalev Ad-El – harpsichord, Hana Fleková – viola da gamba, Jan Krejca – theorbo & baroque guitar.

Composer: Roland Marais. Performers: - Ensemble Tourbillon. In MP3 format In FLAC format ? 2:25. Lassus · Villanelle, moresche e altre canzoni (Concerto Italiano, R. Alessandrini).

org (Classical) Roland Marais - Pieces de Viole, Livre II, 1738, Suites I-IV (Petr Wagner, Ensemble Tourbillon) - 2009, FLA Камерная инструментальная музыка (lossless). org Accent ACC24229 Roland Marais - Pieces de Viole Livre II, 1738 (Petr Wagner, Ensemble Tourbillon) Other. eu Accent ACC24229 Roland Marais - Pieces de Viole Livre II, 1738 (Petr Wagner, Ensemble Tourbillon) audio. R Marais - Pieces de Viole Livre II, 1738 - Petr Wagner. md51 KB. sfv2 KB. txt2 KB. cue5 KB.

Roland Marais (1686-1750) 1. Suite III (from Pièces de Viole, Livre II, 1738) Petr Wagner, viola da gamba. Ensemble Tourbillon (ACC 24229, 2010) Domenico Gabrielli (c. 659-1690) 2. Sonata in G major Giovanni Lorenzo Lulier (1662-1700) 3. Cantate Amor, di che tu vuoi Giuseppe Maria Jacchini (c. 670-1727) 4. Sonata in a minor, op. 1/8 Johannette Zomer, soprano. Siebe Henstra, harpsichord. Richte van der Meer, cello (7MNTN-0005, 2016) Johann Abraham Schmierer (1661-after 1700) 5. Suite no. 4 in b minor Ensemble Tourbillon (ACC 24294, 2015). Producer: Irene Stolp.

Album · 2011 · 30 Songs. Pieces de Viole, Book 2: Suite No. 3: IV. Sarabande La Verrieres de C . Ensemble Tourbillon & Petr Wagner. 5. 3: V. Allemande La La Bergerie. 1: II. Allemande La Baralle. 11. 1: III. Sarabande La Ryneveld. 12. 1: IV. Rondeau Le Monclot. 13. 1: V. Allemande La Vandercruisse, La Singuliere.