Nicki Minaj - It's Barbie BitchNicki Minaj - It's Barbie Bitch Harlem Zip Code - I'm ReadyHarlem Zip Code - I'm Ready Chicago Mass Choir - Please Don't Leave MeChicago Mass Choir - Please Don't Leave Me Farben - TextstarFarben - Textstar Diplo / Starrah - SwerveDiplo / Starrah - Swerve Gain - Vol. 1, Pt. 1Gain - Vol. 1, Pt. 1 Face Candy - This Is Where We WereFace Candy - This Is Where We Were Anthony Bush - Our Praise OfferingAnthony Bush - Our Praise Offering
» » Teddy Wilson - Teddy Wilson, Vol. 9
Teddy Wilson - Teddy Wilson, Vol. 9 album download
Title:

Teddy Wilson - Teddy Wilson, Vol. 9 album download

Performer:
Teddy Wilson
Album:
Teddy Wilson, Vol. 9
Style:
Swing,Piano Jazz
Genre:
Duration:
01:06:05
MP3 archive size:
1233 mb
FLAC archive size:
1329 mb
Other formats:
DXD FLAC MPC MP4 ASF TTA
Rating:
4.5
Votes:
579

Artist: Teddy Wilson and His Orchestra. Send "Teddy Wilson And His Orchestra" Ringtones to your Cell.

By Teddy Wilson, His Trio. By Teddy Wilson, His Trio.

Download and listen free to Teddy Wilson, Boots Castle - Remember Me. Lyrics. Download MP3 or another format to your phone or computer. Download for free and listen to Teddy Wilson, Boots Castle - Remember Me. We have song's lyrics, which you can find out below. Org T, B Teddy Wilson, Boots Castle.

Looking Up" PERFORMER "Teddy Wilson" INDEX 00 40:16:25 INDEX 01 40:17:37 TRACK 15 AUDIO TITLE "Rhythm in My Nursery Rhymes" PERFORMER "Teddy Wilson" INDEX 00 43:38:50 INDEX 01 43:39:62 TRACK 16 AUDIO TITLE "Sailin'" PERFORMER "Teddy Wilson" INDEX 00 46:40:02 INDEX 01 46:41:27. During the years 1935-1939 pianist Teddy Wilson led a series of small recording bands peppered with some of the world's most accomplished and influential jazz musicians.

Songs start at USD . 9. Released: 31 Dec 2005. 2006 Charly Records. More By Teddy Wilson and His Orchestra.

Wilson returned to small groups and then a trio as his last sessions for Columbia. Still not quite up to the impeccable calibre of the earlier dates, but a 1940 session with Bill Coleman and Benny Morton in the front line is fine, and Wilson's 1941 solos-with-rhythm maintain his own fierce standards. A session with Emmet Berry, Benny Morton and Jimmy Hamilton provide two smoky Lena Horne songs.

Tracks count: 13. Views: 7. Teddy Wilson And His Orchestra - Who Loves You ? - Original 03:12. Teddy Wilson And His Orchestra - When You and I Were Young, Maggie - Original 02:48.

Teddy Wilson - I'm Painting The Town Red, Sweet Lorraine (Brunswick 7520). Roy Eldridge, trumpet; Cecil Scott, clarinet; Hilton Jefferson, alto sax; Ben Webster, tenor sax; Teddy Wilson, piano; Lawrence Lucie, guitar; John Kirby, bass; Cozy Cole, drums. also issued on Brunswick 02072, A-9870, A-86042, A-500603. Teddy Wilson - Every Now And Then, It Never Dawned On Me (Brunswick 7543). NYC, October 7, 1935. Various Artists - The Trumpet Album, Vol. 1 (Meritt 8). Emmett Berry, trumpet; Benny Morton, trombone; Edmond Hall, clarinet; Teddy Wilson, piano; Johnny Williams, bass; .

Track List

Title/Composer Performer Time
1 Embraceable You Teddy Wilson 3:14
2 But Not for Me Teddy Wilson 3:17
3 Oh! Lady Be Good Teddy Wilson 2:57
4 Smoke Gets in Your Eyes Teddy Wilson 3:13
5 Rosetta Teddy Wilson 2:47
6 I Know That You Know Teddy Wilson 2:23
7 Them There Eyes Teddy Wilson 2:54
8 China Boy Teddy Wilson 2:38
9 Body and Soul Teddy Wilson 3:12
10 I Can't Get Started Teddy Wilson 2:59
11 Out of Nowhere Teddy Wilson 3:27
12 Prisoner of Love Teddy Wilson 3:20
13 Every Time We Say Goodbye Teddy Wilson 3:03
14 Just You, Just Me Teddy Wilson 2:58
15 Just for the Blues Teddy Wilson 3:14
16 This Heart of Mine Teddy Wilson 3:05
17 Bugle Call Rag Teddy Wilson 2:48
18 Running Wild Teddy Wilson 2:55
19 I Surrender Dear Teddy Wilson 2:41
20 Memories of You Teddy Wilson 2:59
21 If Dreams Come True Teddy Wilson 2:56
22 I Can't Get Started Teddy Wilson 3:05