Lonesome Pine Fiddlers - Hylo Brown Meets the Lonesome Pine FiddlersLonesome Pine Fiddlers - Hylo Brown Meets the Lonesome Pine Fiddlers Various Artists - Jazz District: Cool JazzVarious Artists - Jazz District: Cool Jazz God's Anointed Soldiers - The AlternativeGod's Anointed Soldiers - The Alternative Karaoke - GlycerineKaraoke - Glycerine Various Artists - Ambient Sounds Modern Chill Out, Vol. 1Various Artists - Ambient Sounds Modern Chill Out, Vol. 1 Jean-Michel Hasler - Un Llibre Vermell: Changes et Danses des Pèlerins de MontserratJean-Michel Hasler - Un Llibre Vermell: Changes et Danses des Pèlerins de Montserrat Kendra Springer - HopeKendra Springer - Hope Various Artists - Xaviers Wunschkonzert, Vol. 1Various Artists - Xaviers Wunschkonzert, Vol. 1
» » Scholars Baroque Ensemble - Purcell: The Fairy Queen
Scholars Baroque Ensemble - Purcell: The Fairy Queen album download
Title:

Scholars Baroque Ensemble - Purcell: The Fairy Queen album download

Performer:
Scholars Baroque Ensemble
Album:
Purcell: The Fairy Queen
Style:
Vocal Music
Genre:
Duration:
02:08:23
MP3 archive size:
1273 mb
FLAC archive size:
1901 mb
Other formats:
AUD VQF ASF MP1 DMF MP4
Rating:
4.7
Votes:
615

The Fairy Queen: Act I - Scene Of The Drunken Poet. 4. The Fairy Queen: Act I - First Act Tune: Jig. 1:03. 5. The Fairy Queen: Act II - Prelude And Song. 6. The Fairy Queen: Act II - Prelude. 7. The Fairy Queen: Act II - Chorus. 8. 9. The Fairy Queen: Act II - Solo, Chorus & Dance Of Fairies. 10. The Fairy Queen: Act II - Night. 11. The Fairy Queen: Act II - Mystery.

The Fairy Queen: Act I - Scene Of The Drunken Poet. Diğer The Scholars Baroque Ensemble Eserleri.

Henry Purcell: The Fairy Queen Жанр: Classical opera Страна-производитель диска: Made in Germany Год издания диска: 1993 Издатель (лейбл): Naxos Номер по каталогу: . 50660-61 Дата записи: 1992 Аудиокодек: FLAC Тип рипа: image+. Scholars Baroque Ensemble" INDEX 01 11:23:05 TRACK 06 AUDIO TITLE "Act II - Prelude" PERFORMER "The Scholars Baroque Ensemble" INDEX 01 13:30:00 TRACK 07 AUDIO TITLE "Act II - Chorus" PERFORMER "The Scholars Baroque Ensemble" INDEX 01 14:34:18 TRACK 08 AUDIO TITLE "Act II - Chorus" PERFORMER "The Scholars Baroque Ensemble" INDEX 01 15:32:43 TRACK 09 AUDIO TITLE.

Discography of The Scholars Baroque Ensemble. Henry Purcell: The Fairy Queen CD1.

Track List - Disc 1

Title/Composer Performer Time
The Fairy Queen, semi-opera, Z. 629
1 Overture Scholars Baroque Ensemble 1:26
2 Act 1. Duet Scholars Baroque Ensemble 2:01
3 Act 1. Scene of the Drunken Poet Scholars Baroque Ensemble 6:47
4 Act 1. First Act Tune - Jig Scholars Baroque Ensemble 1:08
5 Act 2. Prelude and song Scholars Baroque Ensemble 2:06
6 Act 2. Prelude Scholars Baroque Ensemble 1:04
7 Act 2. Chorus Scholars Baroque Ensemble 0:58
8 Act 2. Chorus Scholars Baroque Ensemble 0:30
9 Act 2. Solo, Chorus & Dance of Fairies Scholars Baroque Ensemble 2:09
10 Act 2. Night Scholars Baroque Ensemble 4:49
11 Act 2. Mystery Scholars Baroque Ensemble 0:54
12 Act 2. Secresie Scholars Baroque Ensemble 2:14
13 Act 2. Sleep & Chorus Scholars Baroque Ensemble 5:09
14 Act 2. Dance for the followers of Night Scholars Baroque Ensemble 1:21
15 Act 3. Prelude, solo & Chorus Scholars Baroque Ensemble 2:27
16 Act 3. Symphony while the swans come forward Scholars Baroque Ensemble 1:40
17 Act 3. Dance for the Fairies Scholars Baroque Ensemble 0:51
18 Act 3. Dance for the Green Men Scholars Baroque Ensemble 1:40
19 Act 3. Song Scholars Baroque Ensemble 5:21
20 Act 3. Dialogue between Coridon and Mopsa Scholars Baroque Ensemble 3:41
21 Act 3. Dance for the Haymakers Scholars Baroque Ensemble 0:55
22 Act 3. A Nymph Scholars Baroque Ensemble 3:12
23 Act 3. Song & Chorus Scholars Baroque Ensemble 2:23

Track List - Disc 2

Title/Composer Performer Time
The Fairy Queen, semi-opera, Z. 629
1 Act 4. Symphony Scholars Baroque Ensemble 6:24
2 Act 4. An Attendant & Chorus Scholars Baroque Ensemble 2:02
3 Act 4. Two Attendants Scholars Baroque Ensemble 1:28
4 Act 4. Entry of Phoebus Scholars Baroque Ensemble 0:38
5 Act 4. Phoebus Scholars Baroque Ensemble 2:50
6 Act 4. Chorus Scholars Baroque Ensemble 1:53
7 Act 4. Spring Scholars Baroque Ensemble 2:01
8 Act 4. Summer Scholars Baroque Ensemble 1:09
9 Act 4. Autumn Scholars Baroque Ensemble 2:36
10 Act 4. Winter Scholars Baroque Ensemble 2:38
11 Act 4. Chorus Scholars Baroque Ensemble 1:57
12 Act 5. Prelude Scholars Baroque Ensemble 1:07
13 Act 5. Juno Scholars Baroque Ensemble 2:51
14 Act 5. The Plaint Scholars Baroque Ensemble 7:04
15 Act 5. Symphony Scholars Baroque Ensemble 0:50
16 Act 5. A Chinese Man Scholars Baroque Ensemble 4:21
17 Act 5. A Chinese Woman Scholars Baroque Ensemble 1:02
18 Act 5. A Chinese Man Scholars Baroque Ensemble 2:22
19 Act 5. Monkey's Dance Scholars Baroque Ensemble 0:54
20 Act 5. First Woman Scholars Baroque Ensemble 2:02
21 Act 5. Second Woman Scholars Baroque Ensemble 2:35
22 Act 5. Two Women Scholars Baroque Ensemble 2:56
23 Act 5. Prelude Scholars Baroque Ensemble 0:19
24 Act 5. Hymen Scholars Baroque Ensemble 2:14
25 Act 5. Two Women Scholars Baroque Ensemble 1:31
26 Act 5. Hymen Scholars Baroque Ensemble 1:04
27 Act 5. Chaconne - The Grande Dame Scholars Baroque Ensemble 2:44
28 Act 5. Trio Scholars Baroque Ensemble 2:08
29 Appendix. First Musick Prelude Scholars Baroque Ensemble 1:49
30 Appendix. First Musick Hornpipe Scholars Baroque Ensemble 0:57
31 Appendix. Second Musick Air Scholars Baroque Ensemble 0:56
32 Appendix. Second Musick Rondeau Scholars Baroque Ensemble 1:27
33 Appendix. Second Act Tune (Air) Scholars Baroque Ensemble 1:17
34 Appendix. Fourth Act Tune (Air) Scholars Baroque Ensemble 0:57
35 Appendix. Third Act Tune (Hornpipe) Scholars Baroque Ensemble 0:59
36 Appendix. Entry Dance Scholars Baroque Ensemble 1:35